<?xml version="1.0" standalone="no"?>
<!DOCTYPE svg PUBLIC "-//W3C//DTD SVG 1.1//EN" "http://www.w3.org/Graphics/SVG/1.1/DTD/svg11.dtd" >
<svg xmlns="http://www.w3.org/2000/svg">
<metadata>Generated by IcoMoon</metadata>
<defs>
<font id="WineAccess-Dingbats" horiz-adv-x="1024">
<font-face units-per-em="1024" ascent="960" descent="-64" />
<missing-glyph horiz-adv-x="1024" />
<glyph unicode="&#x20;" horiz-adv-x="512" d="" />
<glyph unicode="&#xe900;" glyph-name="adjust" d="M1024 448h-582.4c-12.8 70.4-76.8 128-153.6 128s-140.8-51.2-153.6-128h-134.4v-64h134.4c12.8-70.4 76.8-128 153.6-128s140.8 57.6 153.6 128h582.4v64zM288 320c-44.8 0-76.8 25.6-89.6 64-6.4 12.8-6.4 19.2-6.4 32s0 25.6 6.4 32c12.8 38.4 51.2 64 89.6 64s76.8-25.6 89.6-64c6.4-6.4 6.4-19.2 6.4-32s0-19.2-6.4-32c-12.8-38.4-44.8-64-89.6-64zM1024 128h-326.4c-12.8 70.4-76.8 128-153.6 128s-140.8-51.2-153.6-128h-390.4v-64h390.4c12.8-70.4 76.8-128 153.6-128s140.8 57.6 153.6 128h326.4v64zM544 0c-44.8 0-76.8 25.6-89.6 64-6.4 12.8-6.4 19.2-6.4 32s0 25.6 6.4 32c12.8 38.4 51.2 64 89.6 64s76.8-25.6 89.6-64c6.4-6.4 6.4-19.2 6.4-32s0-19.2-6.4-32c-12.8-38.4-44.8-64-89.6-64zM1024 768h-134.4c-12.8 70.4-76.8 128-153.6 128s-140.8-57.6-153.6-128h-582.4v-64h582.4c12.8-70.4 76.8-128 153.6-128s140.8 51.2 153.6 128h134.4v64zM736 640c-38.4 0-76.8 25.6-89.6 64-6.4 6.4-6.4 19.2-6.4 32s0 19.2 6.4 32c12.8 38.4 51.2 64 89.6 64s76.8-25.6 89.6-64c6.4-12.8 6.4-19.2 6.4-32s0-25.6-6.4-32c-12.8-38.4-51.2-64-89.6-64z" />
<glyph unicode="&#xe901;" glyph-name="arrow-down" d="M819.2 332.8l-70.4 70.4c-6.4 6.4-19.2 6.4-25.6 0l-153.6-153.6v633.6c0 6.4-6.4 12.8-12.8 12.8h-96c-6.4 0-12.8-6.4-12.8-12.8v-633.6l-153.6 153.6c-6.4 6.4-19.2 6.4-25.6 0l-70.4-70.4c-6.4-6.4-6.4-19.2 0-25.6l307.2-307.2 307.2 307.2c12.8 6.4 12.8 19.2 6.4 25.6z" />
<glyph unicode="&#xe902;" glyph-name="arrow-left" d="M371.2 755.2l-307.2-307.2 307.2-307.2c6.4-6.4 19.2-6.4 25.6 0l70.4 70.4c6.4 6.4 6.4 19.2 0 25.6l-153.6 153.6h633.6c6.4 0 12.8 6.4 12.8 12.8v96c0 6.4-6.4 12.8-12.8 12.8h-633.6l153.6 153.6c6.4 6.4 6.4 19.2 0 25.6l-70.4 70.4c-6.4 6.4-19.2 6.4-25.6-6.4z" />
<glyph unicode="&#xe903;" glyph-name="arrow-right" d="M627.2 761.6l-70.4-70.4c-6.4-6.4-6.4-19.2 0-25.6l153.6-153.6h-633.6c-6.4 0-12.8-6.4-12.8-12.8v-96c0-6.4 6.4-12.8 12.8-12.8h633.6l-153.6-153.6c-6.4-6.4-6.4-19.2 0-25.6l70.4-70.4c6.4-6.4 19.2-6.4 25.6 0l307.2 307.2-307.2 307.2c-6.4 12.8-19.2 12.8-25.6 6.4z" />
<glyph unicode="&#xe904;" glyph-name="arrow-up" d="M819.2 588.8l-307.2 307.2-307.2-307.2c-6.4-6.4-6.4-19.2 0-25.6l70.4-70.4c6.4-6.4 19.2-6.4 25.6 0l153.6 153.6v-633.6c0-6.4 6.4-12.8 12.8-12.8h96c6.4 0 12.8 6.4 12.8 12.8v633.6l153.6-153.6c6.4-6.4 19.2-6.4 25.6 0l70.4 70.4c6.4 6.4 6.4 19.2-6.4 25.6z" />
<glyph unicode="&#xe905;" glyph-name="calendar" d="M384 512v-128h-192v-320h448v128h192v320h-448zM448 448h128v-64h-128v64zM576 256h-128v64h128v-64zM256 320h128v-64h-128v64zM384 128h-128v64h128v-64zM576 128h-128v64h128v-64zM768 256h-128v64h128v-64zM640 384v64h128v-64h-128zM895.488 832h-63.488v32c0 53.056-43.008 96-96 96s-96-42.944-96-96v-32h-256v32c0 53.056-42.944 96-96 96s-96-42.944-96-96v-32h-63.488c-35.648 0-64.512-28.608-64.512-64v-768c0-35.392 28.864-64 64.512-64h766.976c35.648 0 64.512 28.608 64.512 64v768c0 35.392-28.864 64-64.512 64zM704 864c0 17.664 14.336 32 32 32s32-14.336 32-32v-128c0-17.664-14.336-32-32-32s-32 14.336-32 32v128zM256 864c0 17.664 14.336 32 32 32s32-14.336 32-32v-128c0-17.664-14.336-32-32-32s-32 14.336-32 32v128zM895.488 0h-767.488l0.384 576h767.488l-0.384-576z" />
<glyph unicode="&#xe906;" d="M192 320l320 320 320-320h-640z" />
<glyph unicode="&#xe907;" d="M192 320l320 320 320-320h-640z" />
<glyph unicode="&#xe908;" glyph-name="caret" d="M832 576l-320-320-320 320h640z" />
<glyph unicode="&#xe909;" glyph-name="cart" d="M768 659.2h224c12.8 0 32 12.8 32 32v57.6c0 12.8-12.8 32-32 32h-224c-19.2 51.2-76.8 89.6-134.4 89.6h-601.6c-19.2 0-32-19.2-32-32v-243.2c0-6.4 0-12.8 6.4-12.8-6.4-6.4-6.4-6.4-6.4-12.8v-236.8c0-12.8 0-12.8 6.4-19.2 0 0-6.4-6.4-6.4-12.8v-243.2c0-12.8 12.8-32 32-32h601.6c57.6 0 115.2 38.4 140.8 89.6h224c12.8 0 32 12.8 32 32v57.6c0 12.8-12.8 32-32 32h-230.4c-12.8 32-44.8 57.6-70.4 76.8 32 12.8 57.6 44.8 70.4 76.8h224c12.8 0 32 12.8 32 32v51.2c0 12.8-12.8 32-32 32h-224c-12.8 32-38.4 57.6-70.4 76.8 32 12.8 57.6 44.8 70.4 76.8zM742.4 224l6.4-19.2h243.2v-57.6h-243.2l-6.4-19.2c-19.2-44.8-64-70.4-108.8-70.4h-601.6v243.2h601.6c44.8 0 89.6-32 108.8-76.8v0zM742.4 492.8l6.4-19.2h243.2v-57.6h-243.2l-6.4-19.2c-19.2-44.8-64-70.4-108.8-70.4h-601.6v243.2h601.6c44.8 0 89.6-32 108.8-76.8zM633.6 595.2h-601.6v243.2h601.6c51.2 0 89.6-25.6 108.8-70.4l6.4-19.2h243.2v-57.6h-243.2l-6.4-19.2c-19.2-44.8-64-76.8-108.8-76.8v0z" />
<glyph unicode="&#xe90a;" glyph-name="checkmark-circle" d="M736 652.8c-19.2 12.8-51.2 6.4-64-12.8l-217.6-332.8-102.4 96c-19.2 19.2-44.8 12.8-64 0-19.2-19.2-12.8-44.8 0-64l140.8-134.4 6.4-6.4h6.4l6.4-6.4h25.6l12.8 6.4 12.8 12.8 243.2 371.2c19.2 25.6 12.8 57.6-6.4 70.4v0zM512 896c249.6 0 448-198.4 448-448s-198.4-448-448-448c-249.6 0-448 198.4-448 448s198.4 448 448 448zM512 960c-281.6 0-512-230.4-512-512s230.4-512 512-512 512 230.4 512 512-230.4 512-512 512z" />
<glyph unicode="&#xe90b;" glyph-name="checkmark" d="M950.72 899.2c-42.496 26.88-98.688 15.68-125.376-26.816l-433.92-664-208 194.432c-38.208 33.344-94.016 31.296-127.616-4.736-33.408-35.648-31.424-93.824 4.608-127.36l290.752-268.16 6.592-6.656 13.44-4.608 13.632-6.656 15.424-2.432h22.656l8.832 2.432 26.816 11.264 4.544 2.24 15.744 11.136 6.784 11.136 491.968 753.664c26.624 42.496 15.616 98.304-26.88 125.12v0z" />
<glyph unicode="&#xe90c;" glyph-name="chevron-down" d="M512 294.4l428.8 428.8c19.2 19.2 51.2 19.2 70.4 0s19.2-51.2 0-70.4l-499.2-499.2-499.2 499.2c-19.2 19.2-19.2 51.2 0 70.4s51.2 19.2 70.4 0l428.8-428.8z" />
<glyph unicode="&#xe90d;" glyph-name="chevron-left" d="M358.4 448l428.8 428.8c19.2 19.2 19.2 51.2 0 70.4s-51.2 19.2-70.4 0l-499.2-499.2 499.2-499.2c19.2-19.2 51.2-19.2 70.4 0s19.2 51.2 0 70.4l-428.8 428.8z" />
<glyph unicode="&#xe90e;" glyph-name="chevron-right" d="M665.6 448l-428.8 428.8c-19.2 19.2-19.2 51.2 0 70.4s51.2 19.2 70.4 0l499.2-499.2-499.2-499.2c-19.2-19.2-51.2-19.2-70.4 0s-19.2 51.2 0 70.4l428.8 428.8z" />
<glyph unicode="&#xe90f;" glyph-name="chevron-up" d="M512 601.6l-428.8-428.8c-19.2-19.2-51.2-19.2-70.4 0s-19.2 51.2 0 70.4l499.2 499.2 499.2-499.2c19.2-19.2 19.2-51.2 0-70.4s-51.2-19.2-70.4 0l-428.8 428.8z" />
<glyph unicode="&#xe910;" glyph-name="circle" d="M512 896c246.976 0 448-200.96 448-448 0-246.976-201.024-448-448-448-247.040 0-448 201.024-448 448 0 247.040 200.96 448 448 448zM512 960c-282.752 0-512-229.248-512-512s229.248-512 512-512 512 229.248 512 512-229.248 512-512 512z" />
<glyph unicode="&#xe911;" glyph-name="circles" d="M748.8 684.8c-44.8 160-192 275.2-364.8 275.2-211.2 0-384-172.8-384-384 0-172.8 115.2-320 275.2-364.8 44.8-160 192-275.2 364.8-275.2 211.2 0 384 172.8 384 384 0 172.8-115.2 320-275.2 364.8zM96 576c0 160 128 288 288 288 115.2 0 211.2-64 256-160 0 0 0 0 0 0-211.2 0-384-172.8-384-384 0 0 0 0 0 0-96 44.8-160 140.8-160 256zM672 576c0-160-128-288-288-288-12.8 0-19.2 0-32 0 0 12.8 0 19.2 0 32 0 160 128 288 288 288 12.8 0 19.2 0 32 0 0-12.8 0-19.2 0-32zM640 32c-115.2 0-211.2 64-256 160 0 0 0 0 0 0 211.2 0 384 172.8 384 384 0 0 0 0 0 0 96-44.8 160-147.2 160-256 0-160-128-288-288-288z" />
<glyph unicode="&#xe912;" d="M550.848 737.344h-77.76v-304.96l189.184-189.184 55.744 54.528-167.168 166.976z" />
<glyph unicode="&#xe913;" d="M512 864c229.376 0 416-186.624 416-416s-186.624-416-416-416-416 186.624-416 416 186.624 416 416 416zM512 960c-282.752 0-512-229.248-512-512 0-282.816 229.248-512 512-512s512 229.184 512 512c0 282.752-229.248 512-512 512z" />
<glyph unicode="&#xe914;" glyph-name="close-disc" d="M195.2 764.8c-174.976-174.976-174.976-458.624 0-633.6 174.976-174.912 458.624-174.912 633.6 0 174.912 174.976 174.912 458.624 0 633.6-174.976 174.976-458.624 174.976-633.6 0zM760.896 606.4l-158.4-158.4 158.4-158.4c12.544-12.48 12.544-32.768 0-45.248l-45.248-45.248c-12.48-12.544-32.768-12.544-45.248 0l-158.4 158.4-158.4-158.4c-12.48-12.544-32.704-12.544-45.248 0l-45.248 45.248c-12.48 12.48-12.48 32.768 0 45.248l158.4 158.4-158.4 158.4c-12.48 12.48-12.48 32.704 0 45.248l45.248 45.248c12.544 12.48 32.768 12.48 45.248 0l158.4-158.4 158.4 158.4c12.48 12.48 32.768 12.48 45.248 0l45.248-45.248c12.544-12.544 12.544-32.768 0-45.248z" />
<glyph unicode="&#xe915;" glyph-name="close" d="M760.896 787.392l-248.896-248.896-248.896 248.896c-12.48 12.48-32.768 12.48-45.248 0l-45.248-45.248c-12.48-12.48-12.48-32.768 0-45.248l248.896-248.896-248.896-248.896c-12.48-12.544-12.48-32.768 0-45.312l45.248-45.248c12.48-12.48 32.768-12.48 45.248 0l248.896 248.96 248.896-248.96c12.544-12.48 32.768-12.48 45.312 0l45.248 45.248c12.48 12.544 12.48 32.768 0 45.312l-248.96 248.896 248.96 248.896c12.48 12.48 12.48 32.768 0 45.248l-45.248 45.248c-12.608 12.544-32.768 12.544-45.312 0z" />
<glyph unicode="&#xe916;" glyph-name="comment" d="M848 768c26.432 0 48-21.504 48-48v-416c0-26.432-21.568-48-48-48h-298.496l-101.504-101.504v101.504h-272c-26.496 0-48 21.568-48 48v416c0 26.496 21.504 48 48 48h672zM848 832h-672c-61.824 0-112-50.176-112-112v-416c0-61.888 50.176-112 112-112h208v-192l192 192h272c61.888 0 112 50.112 112 112v416c0 61.824-50.112 112-112 112z" />
<glyph unicode="&#xe917;" glyph-name="diamond" d="M192 448l320.001 320.001 320.001-320.001-320.001-320.001-320.001 320.001z" />
<glyph unicode="&#xe918;" glyph-name="dot" d="M704 448c0-106.039-85.961-192-192-192s-192 85.961-192 192c0 106.039 85.961 192 192 192s192-85.961 192-192z" />
<glyph unicode="&#xe919;" glyph-name="envelope" d="M1024 704v64h-1024v-64l512-352 512 352zM512 281.6l-512 352v-569.6h1024v563.2l-512-345.6z" />
<glyph unicode="&#xe91a;" glyph-name="error" d="M946.496 127.296l-370.816 741.696c-35.008 70.016-92.288 70.016-127.296 0l-370.88-741.696c-35.008-70.016 0.384-127.296 78.656-127.296h711.68c78.208 0 113.664 57.28 78.656 127.296zM568.064 89.152h-112.128v108.352h112.128v-108.352zM570.688 499.904l-30.4-257.728h-55.872l-31.104 257.728v140.096h117.376v-140.096z" />
<glyph unicode="&#xe91b;" glyph-name="facebook" d="M582.4 0v409.6h140.8l19.2 160h-160v102.4c0 44.8 12.8 76.8 76.8 76.8h83.2v140.8c-12.8 6.4-64 6.4-121.6 6.4-121.6 0-204.8-70.4-204.8-211.2v-115.2h-140.8v-160h140.8v-409.6h166.4z" />
<glyph unicode="&#xe91c;" glyph-name="first" d="M18.881 496.064l0.32 0.384 440.128 443.072c12.992 13.696 30.72 20.544 47.616 20.416 17.856 0 35.456-6.912 48.768-20.224l0.768-0.768c12.48-13.312 19.008-30.72 19.008-47.936 0-17.28-6.528-34.624-19.008-47.936l-0.256-0.192-380.288-395.264 379.52-394.368c12.224-13.376 18.816-30.656 18.752-47.872 0.064-17.28-6.528-34.56-18.752-47.872l-0.128-0.064-0.064-0.064c-13.12-14.144-31.232-21.376-48.96-21.376-17.472 0-35.2 7.168-48.256 20.8l-0.128-0.128-0.64 0.704-438.4 442.944c-12.48 13.312-18.944 30.656-18.88 47.872-0.064 17.216 6.4 34.56 18.88 47.872zM466.881 496.064l0.32 0.384 440.128 443.072c12.992 13.696 30.72 20.544 47.616 20.416 17.856 0 35.456-6.912 48.768-20.224l0.768-0.768c12.48-13.312 19.008-30.72 19.008-47.936 0-17.28-6.528-34.624-19.008-47.936l-0.256-0.192-380.288-395.264 379.52-394.368c12.224-13.376 18.816-30.656 18.752-47.872 0.064-17.28-6.528-34.56-18.752-47.872l-0.128-0.064-0.064-0.064c-13.12-14.144-31.232-21.376-48.96-21.376-17.472 0-35.2 7.168-48.256 20.8l-0.128-0.128-0.64 0.704-438.4 442.944c-12.48 13.312-18.944 30.656-18.88 47.872-0.064 17.216 6.4 34.56 18.88 47.872z" />
<glyph unicode="&#xe91d;" glyph-name="info-disc" d="M512 960c-281.6 0-512-230.4-512-512s230.4-512 512-512c281.6 0 512 230.4 512 512s-230.4 512-512 512zM460.8 512h96v-332.8h-96v332.8zM460.8 716.8h96v-102.4h-96v102.4z" />
<glyph unicode="&#xe91e;" glyph-name="info" d="M512 960c-281.6 0-512-230.4-512-512s230.4-512 512-512c281.6 0 512 230.4 512 512s-230.4 512-512 512zM512 0c-249.6 0-448 198.4-448 448s198.4 448 448 448c249.6 0 448-198.4 448-448s-198.4-448-448-448zM460.8 512h96v-332.8h-96v332.8zM460.8 716.8h96v-102.4h-96v102.4z" />
<glyph unicode="&#xe91f;" glyph-name="key" d="M256 640c68.352 0 130.112-35.968 165.184-96.192l18.56-31.808h462.4l42.368-62.72-28.736-35.84-69.376 17.344-45.504-37.696-76.032 48.64-74.88-66.048-28.608 8.32h-181.632l-18.56-31.808c-35.072-60.224-96.832-96.192-165.184-96.192-105.856 0-192 86.144-192 192s86.144 192 192 192zM256 704c-141.376 0-256-114.624-256-256s114.624-256 256-256c94.528 0 176.128 51.904 220.48 128h135.808l53.632-15.488 65.152 57.344 74.752-47.808 56.512 46.784 77.76-19.52 83.904 104.704-88 129.984h-459.52c-44.352 76.16-125.952 128-220.48 128zM192 512c-35.328 0-64-28.672-64-64 0-35.392 28.672-64 64-64s64 28.608 64 64c0 35.328-28.672 64-64 64zM192 416c-17.664 0-32 14.336-32 32s14.336 32 32 32 32-14.336 32-32-14.336-32-32-32z" />
<glyph unicode="&#xe920;" glyph-name="last" d="M1004.608 399.872l-0.32-0.384-440.128-443.072c-12.992-13.696-30.72-20.544-47.616-20.416-17.856 0-35.456 6.912-48.768 20.224l-0.768 0.768c-12.48 13.312-19.008 30.72-19.008 47.936 0 17.28 6.528 34.624 19.008 47.936l0.256 0.192 380.288 395.264-379.52 394.368c-12.224 13.376-18.816 30.656-18.752 47.872-0.064 17.28 6.528 34.56 18.752 47.872l0.128 0.064 0.064 0.064c13.12 14.144 31.232 21.376 48.96 21.376 17.472 0 35.2-7.168 48.256-20.8l0.128 0.128 0.64-0.704 438.4-442.944c12.48-13.312 18.944-30.656 18.88-47.872 0.064-17.216-6.4-34.56-18.88-47.872zM556.608 399.872l-0.32-0.384-440.128-443.072c-12.992-13.696-30.72-20.544-47.616-20.416-17.856 0-35.456 6.912-48.768 20.224l-0.768 0.768c-12.48 13.312-19.008 30.72-19.008 47.936 0 17.28 6.528 34.624 19.008 47.936l0.256 0.192 380.288 395.264-379.52 394.368c-12.224 13.376-18.816 30.656-18.752 47.872-0.064 17.28 6.528 34.56 18.752 47.872l0.128 0.064 0.064 0.064c13.12 14.144 31.232 21.376 48.96 21.376 17.472 0 35.2-7.168 48.256-20.8l0.128 0.128 0.64-0.704 438.4-442.944c12.48-13.312 18.944-30.656 18.88-47.872 0.064-17.216-6.4-34.56-18.88-47.872z" />
<glyph unicode="&#xe921;" glyph-name="line-bottles-upright" d="M742.4 627.2v179.2c0 12.8-12.8 25.6-25.6 25.6h-76.8c-12.8 0-25.6-12.8-25.6-25.6v-172.8c-12.8 25.6-19.2 51.2-25.6 70.4v224c0 19.2-12.8 32-32 32h-89.6c-19.2 0-32-12.8-32-32v-224c0-19.2-12.8-44.8-25.6-70.4v172.8c0 12.8-12.8 25.6-25.6 25.6h-76.8c-12.8 0-25.6-12.8-25.6-25.6v-179.2c-6.4-64-89.6-134.4-89.6-236.8v-320c0-25.6 25.6-51.2 51.2-51.2h76.8v-19.2c0-32 32-64 64-64h256c32 0 64 32 64 64v19.2h76.8c25.6 0 51.2 25.6 51.2 51.2v326.4c0 102.4-83.2 172.8-89.6 230.4zM320 403.2v-339.2h-76.8v320c0 44.8 25.6 89.6 44.8 128 19.2 32 38.4 64 44.8 102.4v0 0 166.4h32v-153.6c0-19.2 6.4-32 12.8-51.2-32-51.2-57.6-102.4-57.6-172.8zM652.8 0c0-6.4-6.4-12.8-12.8-12.8h-256c-6.4 0-12.8 6.4-12.8 12.8v403.2c0 64 32 115.2 57.6 166.4 25.6 44.8 44.8 83.2 51.2 121.6v0 0 217.6h64v-204.8c6.4-44.8 25.6-89.6 51.2-128 32-51.2 57.6-102.4 57.6-166.4v-409.6zM780.8 70.4v0l-76.8-6.4v345.6c0 64-25.6 115.2-51.2 166.4 6.4 12.8 12.8 32 12.8 44.8v0 0 160h32v-153.6c6.4-38.4 25.6-70.4 44.8-102.4 25.6-38.4 44.8-76.8 44.8-128v-326.4z" />
<glyph unicode="&#xe922;" glyph-name="line-clipboard" d="M697.6 832c-12.8 38.4-51.2 64-89.6 64h-192c-44.8 0-76.8-25.6-89.6-64h-134.4v-659.2c0-64 44.8-108.8 96-108.8h448c51.2 0 96 44.8 96 102.4v665.6h-134.4zM416 844.8h192c25.6 0 51.2-19.2 51.2-51.2 0-25.6-19.2-51.2-51.2-51.2h-192c-25.6 0-51.2 19.2-51.2 51.2 6.4 32 25.6 51.2 51.2 51.2zM780.8 166.4c0-32-19.2-57.6-51.2-57.6h-448c-25.6 0-51.2 25.6-51.2 57.6v614.4h89.6c12.8-44.8 51.2-76.8 96-76.8h192c44.8 0 83.2 32 96 76.8h83.2v-614.4zM320 576h384v-64h-384v64zM320 448h384v-64h-384v64zM320 320h384v-64h-384v64z" />
<glyph unicode="&#xe923;" glyph-name="line-credit-card" d="M832 768h-640c-70.4 0-128-57.6-128-128v-390.4c0-70.4 57.6-128 128-128h640c70.4 0 128 57.6 128 128v390.4c0 70.4-57.6 128-128 128zM192 716.8h640c44.8 0 76.8-38.4 76.8-76.8h-793.6c0 44.8 32 76.8 76.8 76.8zM908.8 249.6c0-44.8-38.4-76.8-76.8-76.8h-640c-44.8 0-76.8 38.4-76.8 76.8v211.2h800v-211.2zM908.8 512h-793.6v76.8h800v-76.8z" />
<glyph unicode="&#xe924;" glyph-name="line-logout" d="M825.6 582.4l-51.2-44.8 64-57.6h-390.4v-64h390.4l-64-57.6 51.2-44.8 134.4 134.4zM640 179.2h-256c-44.8 0-76.8 38.4-76.8 76.8v384c0 44.8 38.4 76.8 76.8 76.8h256c44.8 0 76.8-38.4 76.8-76.8h51.2c0 70.4-57.6 128-128 128h-256c-70.4 0-128-57.6-128-128v-384c0-70.4 57.6-128 128-128h256c70.4 0 128 57.6 128 128h-51.2c0-44.8-32-76.8-76.8-76.8z" />
<glyph unicode="&#xe925;" glyph-name="line-map-marker" d="M512 896c-179.2 0-320-140.8-320-320 0-224 320-576 320-576s320 352 320 576c0 179.2-140.8 320-320 320zM243.2 576c0 147.2 121.6 268.8 268.8 268.8s268.8-121.6 268.8-268.8c0-147.2-172.8-384-268.8-505.6-102.4 121.6-268.8 358.4-268.8 505.6zM512 736c-83.2 0-153.6-70.4-153.6-153.6s70.4-153.6 153.6-153.6c83.2 0 153.6 70.4 153.6 153.6s-64 153.6-153.6 153.6zM512 473.6c-57.6 0-108.8 51.2-108.8 108.8s51.2 102.4 108.8 102.4 108.8-44.8 108.8-102.4c0-64-51.2-108.8-108.8-108.8z" />
<glyph unicode="&#xe926;" glyph-name="line-person" d="M838.4 230.4l-179.2 96c-38.4 25.6-51.2 44.8-51.2 57.6 0 44.8 83.2 102.4 83.2 249.6 0 121.6-64 211.2-179.2 211.2-128 0-179.2-102.4-179.2-211.2 0-140.8 83.2-198.4 83.2-249.6 0-19.2-12.8-38.4-44.8-57.6l-185.6-96c-64-32-32-172.8-32-172.8h716.8c0 6.4 32 140.8-32 172.8zM832 115.2h-640c0 38.4 0 70.4 12.8 76.8l179.2 96c64 32 70.4 83.2 70.4 102.4 0 32-12.8 57.6-32 83.2-12.8 38.4-38.4 89.6-38.4 166.4 0 25.6 6.4 160 128 160s128-121.6 128-160c0-83.2-32-134.4-51.2-172.8-12.8-32-32-51.2-32-83.2 0-25.6 12.8-64 76.8-96l179.2-96c12.8-6.4 19.2-44.8 19.2-76.8z" />
<glyph unicode="&#xe927;" glyph-name="line-price" d="M915.2 371.2l-51.2 76.8 51.2 76.8c0 6.4 6.4 12.8 6.4 19.2 0 12.8-6.4 25.6-19.2 38.4v0l-83.2 44.8 6.4 96-6.4 19.2-6.4 12.8-19.2 6.4h-6.4l-96-6.4-44.8 83.2-19.2 12.8-6.4 6.4-19.2-6.4h-6.4l-83.2-51.2-76.8 51.2c-6.4 0-12.8 6.4-19.2 6.4-19.2 0-32-12.8-38.4-25.6v0l-44.8-76.8h-96l-12.8-6.4h-12.8l-6.4-25.6v-6.4l6.4-96-83.2-38.4c-19.2-6.4-25.6-25.6-25.6-38.4 0-6.4 0-12.8 6.4-19.2v0l51.2-76.8-51.2-76.8c0-6.4-6.4-12.8-6.4-19.2 0-12.8 6.4-25.6 19.2-38.4l83.2-44.8-6.4-96 6.4-19.2 6.4-12.8 19.2-6.4h6.4l96 6.4 44.8-83.2 19.2-19.2h32l83.2 57.6 76.8-51.2c6.4 0 12.8-6.4 19.2-6.4 12.8 0 25.6 6.4 38.4 19.2v0l44.8 83.2 89.6-6.4c19.2 0 38.4 19.2 38.4 38.4v0 0l-6.4 89.6 83.2 44.8c12.8 6.4 19.2 19.2 19.2 32 6.4 19.2 0 25.6 0 32v0zM153.6 550.4v0 0 0zM774.4 179.2v0 0 0zM768 300.8l6.4-115.2-115.2 6.4-51.2-102.4-96 64-96-57.6-51.2 96-115.2-6.4 6.4 115.2-102.4 51.2 64 96-64 96 102.4 51.2-6.4 115.2 115.2-6.4 51.2 102.4 96-64 96 57.6 51.2-96 115.2 6.4-6.4-115.2 102.4-51.2-64-96 57.6-96-96-51.2zM620.8 441.6c-12.8 19.2-38.4 32-70.4 38.4h-6.4v76.8c12.8-6.4 19.2-19.2 19.2-25.6l57.6 19.2c-12.8 38.4-44.8 64-83.2 76.8v44.8h-64v-44.8c-12.8 0-32-6.4-51.2-19.2-19.2-19.2-32-51.2-32-76.8s6.4-44.8 25.6-64c12.8-19.2 32-32 57.6-38.4v0h6.4v-96c-6.4 0-6.4 0-12.8 6.4-12.8 6.4-19.2 12.8-25.6 32l-64-12.8c6.4-38.4 32-64 57.6-76.8 12.8-6.4 25.6-12.8 44.8-12.8v-38.4h64v38.4c25.6 0 51.2 12.8 64 25.6 25.6 19.2 38.4 51.2 38.4 76.8s-6.4 51.2-25.6 70.4zM454.4 531.2c0 12.8 6.4 19.2 12.8 25.6s6.4 6.4 19.2 6.4v-70.4c-19.2 6.4-25.6 12.8-25.6 12.8-6.4 6.4-6.4 12.8-6.4 25.6zM569.6 339.2c-6.4-6.4-12.8-6.4-25.6-12.8v89.6c19.2-6.4 25.6-12.8 32-19.2s6.4-12.8 6.4-32c0-12.8 0-19.2-12.8-25.6zM550.4 480v0 0z" />
<glyph unicode="&#xe928;" glyph-name="menu" d="M64 768h896v-128h-896v128zM64 512h896v-128h-896v128zM64 256h896v-128h-896v128z" />
<glyph unicode="&#xe929;" glyph-name="minus-circle" d="M512 896c246.976 0 448-200.96 448-448 0-246.976-201.024-448-448-448-247.040 0-448 201.024-448 448 0 247.040 200.96 448 448 448zM512 960c-282.752 0-512-229.248-512-512s229.248-512 512-512 512 229.248 512 512-229.248 512-512 512zM832 416c0-17.664-14.336-32-32-32h-576c-17.664 0-32 14.336-32 32v64c0 17.664 14.336 32 32 32h576c17.664 0 32-14.336 32-32v-64z" />
<glyph unicode="&#xe92a;" glyph-name="minus-disc" d="M512 896c-247.424 0-448-200.576-448-448s200.576-448 448-448 448 200.576 448 448-200.576 448-448 448zM800 384h-576c-17.664 0-32 14.336-32 32v64c0 17.664 14.336 32 32 32h576c17.664 0 32-14.336 32-32v-64c0-17.664-14.336-32-32-32z" />
<glyph unicode="&#xe92b;" glyph-name="minus" d="M960 416c0-17.664-14.336-32-32-32h-832c-17.664 0-32 14.336-32 32v64c0 17.664 14.336 32 32 32h832c17.664 0 32-14.336 32-32v-64z" />
<glyph unicode="&#xe92c;" d="M512 896c246.976 0 448-200.96 448-448 0-246.976-201.024-448-448-448-247.040 0-448 201.024-448 448 0 247.040 200.96 448 448 448zM512 960c-282.752 0-512-229.248-512-512s229.248-512 512-512 512 229.248 512 512-229.248 512-512 512z" />
<glyph unicode="&#xe92d;" d="M380.48 716.416h195.008v-536.896h-86.016v456.256h-108.992v80.64z" />
<glyph unicode="&#xe92e;" d="M512 896c246.976 0 448-200.96 448-448 0-246.976-201.024-448-448-448-247.040 0-448 201.024-448 448 0 247.040 200.96 448 448 448zM512 960c-282.752 0-512-229.248-512-512s229.248-512 512-512 512 229.248 512 512-229.248 512-512 512z" />
<glyph unicode="&#xe92f;" d="M571.968 500.224c15.296 20.992 23.040 42.24 23.040 63.744s-8.256 39.808-24.64 54.912-37.12 22.656-62.208 22.656c-44.032 0-80.704-22.528-109.824-67.584l-73.024 42.24c23.616 35.328 49.6 61.952 78.080 79.872 28.352 17.92 65.024 26.88 109.824 26.88s84.032-14.208 117.824-42.624c33.792-28.416 50.688-67.2 50.688-116.352 0-27.648-7.168-54.016-21.504-79.104s-40.704-57.344-79.104-96.768l-125.952-128.192h243.456v-86.784h-367.104v76.8l162.88 163.52c36.352 36.864 62.144 65.792 77.568 86.784z" />
<glyph unicode="&#xe930;" d="M512 896c246.976 0 448-200.96 448-448 0-246.976-201.024-448-448-448-247.040 0-448 201.024-448 448 0 247.040 200.96 448 448 448zM512 960c-282.752 0-512-229.248-512-512s229.248-512 512-512 512 229.248 512 512-229.248 512-512 512z" />
<glyph unicode="&#xe931;" d="M356.096 639.168v80.704h314.176v-70.656l-129.856-145.152c49.152-1.536 87.552-17.088 115.2-46.528s41.472-64.704 41.472-105.536c0-54.848-18.624-97.856-55.744-129.088s-84.8-46.784-143.168-46.784-115.456 18.624-171.264 56l38.4 73.024c44.032-30.72 90.112-46.144 138.24-46.144 31.232 0 56.96 7.296 77.184 21.888 20.224 14.656 30.4 35.648 30.4 62.976s-11.328 49.28-33.856 65.664c-22.528 16.384-53.76 24.576-93.696 24.576-19.968 0-39.168-2.816-57.6-8.448v69.12l124.416 144.384h-194.304z" />
<glyph unicode="&#xe932;" glyph-name="occasions" d="M870.4-32h-19.2c-19.2 0-57.6 12.8-57.6 64v192c64 6.4 121.6 57.6 121.6 128l-12.8 288h-256l-19.2-288c0-70.4 51.2-121.6 121.6-128v-192c0-51.2-38.4-64-57.6-64h-19.2c-6.4 0-19.2-6.4-19.2-19.2 0-6.4 6.4-19.2 19.2-19.2h204.8c6.4 0 19.2 6.4 19.2 19.2-6.4 12.8-19.2 19.2-25.6 19.2zM198.4 172.8l-12.8 6.4c-12.8 12.8-38.4 38.4-12.8 83.2l102.4 160c64-25.6 134.4-6.4 172.8 44.8l140.8 249.6-217.6 140.8-166.4-230.4c-38.4-57.6-19.2-134.4 32-172.8l-102.4-160c-32-44.8-64-32-83.2-25.6l-12.8 6.4c-6.4 6.4-19.2 0-19.2-6.4-6.4-6.4 0-19.2 6.4-19.2l6.4-6.4 51.2-32 12.8-6.4 12.8-12.8 12.8-6.4 51.2-32 6.4-6.4c6.4-6.4 19.2 0 19.2 6.4 12.8 0 6.4 12.8 0 19.2zM678.4 768v0c-12.8 6.4-12.8 19.2-12.8 25.6l64 140.8c6.4 12.8 19.2 12.8 25.6 12.8v0c12.8-6.4 12.8-19.2 12.8-25.6l-64-140.8c0-12.8-12.8-19.2-25.6-12.8zM620.8 780.8v0c-12.8-6.4-19.2 0-25.6 12.8l-51.2 140.8c-6.4 6.4 0 19.2 6.4 25.6v0c12.8 0 25.6 0 25.6-12.8l51.2-140.8c6.4-12.8 0-25.6-6.4-25.6zM729.6 729.6v0c-6.4 12.8 0 19.2 12.8 25.6l140.8 51.2c12.8 6.4 19.2 0 25.6-12.8v0c6.4-12.8 0-19.2-12.8-25.6l-140.8-51.2c-6.4-6.4-19.2 0-25.6 12.8z" />
<glyph unicode="&#xe933;" glyph-name="person" d="M958.272 0h-892.544c6.656 114.944 31.936 166.848 62.272 192 35.52 29.44 272 128 272 128v81.408c-59.904 57.984-100.544 164.16-92.224 302.592 11.904 200 204.224 191.936 204.224 191.936l0.128 0.064c5.824 0.192 192.384 4.864 204.096-192 8.32-138.432-32.32-244.608-92.224-302.592v-81.408c0 0 236.48-98.56 272-128 30.336-25.152 55.616-77.056 62.272-192z" />
<glyph unicode="&#xe934;" glyph-name="plus-circle" d="M512 896c246.976 0 448-200.96 448-448 0-246.976-201.024-448-448-448-247.040 0-448 201.024-448 448 0 247.040 200.96 448 448 448zM512 960c-282.752 0-512-229.248-512-512s229.248-512 512-512 512 229.248 512 512-229.248 512-512 512zM800 512h-224v224c0 17.664-14.336 32-32 32h-64c-17.664 0-32-14.336-32-32v-224h-224c-17.664 0-32-14.336-32-32v-64c0-17.664 14.336-32 32-32h224v-224c0-17.664 14.336-32 32-32h64c17.664 0 32 14.336 32 32v224h224c17.664 0 32 14.336 32 32v64c0 17.664-14.336 32-32 32z" />
<glyph unicode="&#xe935;" glyph-name="plus-disc" d="M512 896c-247.424 0-448-200.576-448-448s200.576-448 448-448 448 200.576 448 448-200.576 448-448 448zM800 384h-224v-224c0-17.664-14.336-32-32-32h-64c-17.664 0-32 14.336-32 32v224h-224c-17.664 0-32 14.336-32 32v64c0 17.664 14.336 32 32 32h224v224c0 17.664 14.336 32 32 32h64c17.664 0 32-14.336 32-32v-224h224c17.664 0 32-14.336 32-32v-64c0-17.664-14.336-32-32-32z" />
<glyph unicode="&#xe936;" glyph-name="plus" d="M928 512h-352v352c0 17.664-14.336 32-32 32h-64c-17.664 0-32-14.336-32-32v-352h-352c-17.664 0-32-14.336-32-32v-64c0-17.664 14.336-32 32-32h352v-352c0-17.664 14.336-32 32-32h64c17.664 0 32 14.336 32 32v352h352c17.664 0 32 14.336 32 32v64c0 17.664-14.336 32-32 32z" />
<glyph unicode="&#xe937;" glyph-name="pointer-left" d="M896 0l-832 448 832 448v-896z" />
<glyph unicode="&#xe938;" glyph-name="pointer-right" d="M128 896l832-448-832-448v896z" />
<glyph unicode="&#xe939;" glyph-name="question" d="M506.112 896c-247.36-2.944-444.992-206.464-442.112-453.76 2.944-247.424 206.464-445.056 453.76-442.24 247.424 3.008 445.056 206.592 442.24 453.824-3.008 247.424-206.592 445.056-453.888 442.176zM504.192 175.296h-1.984c-37.952 1.024-65.216 29.248-64.256 67.2 1.024 37.056 28.224 63.36 65.28 63.36h1.984c38.912-1.024 65.28-29.248 64.256-67.264-0.064-36.992-27.328-63.296-65.28-63.296zM664.96 493.76c-8.832-12.608-28.288-28.224-53.568-47.744l-27.328-18.432c-14.656-11.712-24.32-22.464-27.328-33.152-2.88-8.768-3.84-10.688-3.84-28.288v-4.864h-105.216v8.832c1.024 36.032 1.984 57.472 17.472 74.944 23.424 27.264 76.032 61.44 77.952 62.4 7.808 5.824 13.632 11.648 18.56 18.432 10.688 15.616 15.616 27.328 15.616 39.040 0 16.576-4.928 31.168-14.72 44.736-8.704 12.672-26.304 19.456-51.584 19.456-25.344 0-41.856-7.808-52.608-24.32-10.688-16.576-15.552-34.112-15.552-51.584v-4.864h-107.072v4.864c2.944 66.176 26.304 112.96 70.080 141.184 27.264 17.536 61.312 26.304 101.248 26.304 51.648 0 96.384-12.672 130.56-38.016 35.072-25.344 52.608-63.296 52.608-112.96 1.024-27.264-7.872-52.544-25.28-75.968z" />
<glyph unicode="&#xe93a;" glyph-name="raf" d="M550.4 697.6c0-91.9-74.5-166.4-166.4-166.4s-166.4 74.5-166.4 166.4c0 91.9 74.5 166.4 166.4 166.4s166.4-74.5 166.4-166.4zM640 0v230.4c0 140.8-115.2 262.4-256 262.4s-256-115.2-256-262.4v-230.4h512zM640 556.8c-32 0-57.6-6.4-83.2-19.2-6.4-6.4-12.8-12.8-19.2-19.2 102.4-57.6 172.8-160 172.8-288v-166.4h192v230.4c-6.4 140.8-121.6 262.4-262.4 262.4zM640 928c-44.8 0-83.2-19.2-115.2-44.8 57.6-44.8 96-108.8 96-185.6 0-38.4-6.4-70.4-25.6-96 12.8-6.4 32-6.4 44.8-6.4 96 0 166.4 76.8 166.4 166.4s-70.4 166.4-166.4 166.4z" />
<glyph unicode="&#xe93b;" glyph-name="search" d="M953.6 57.6l-211.2 211.2c57.6 64 89.6 153.6 89.6 249.6 0 211.2-172.8 384-384 384s-384-172.8-384-384 172.8-384 384-384c96 0 179.2 32 249.6 89.6l211.2-211.2c12.8-12.8 32-12.8 44.8 0v0c6.4 12.8 6.4 32 0 44.8zM128 512c0 179.2 140.8 320 320 320s320-140.8 320-320-140.8-320-320-320-320 140.8-320 320z" />
<glyph unicode="&#xe93c;" glyph-name="send" d="M960 512l-384 256v-134.4c-268.8-32-492.8-230.4-556.8-486.4 121.6 147.2 300.8 236.8 505.6 236.8 12.8 0 32 0 51.2 0v-128l384 256z" />
<glyph unicode="&#xe93d;" glyph-name="share" d="M704 748.8l-134.4 140.8c0 0 0 0 0 0s-6.4 6.4-6.4 6.4c0 0 0 0 0 0-12.8 0-12.8 0-19.2 0 0 0 0 0 0 0s0 0 0 0c-6.4 0-6.4 0-12.8 0 0 0 0 0 0 0s-6.4 0-6.4-6.4c0 0 0 0 0 0l-140.8-140.8c-12.8-12.8-12.8-32 0-44.8s32-12.8 44.8 0l83.2 83.2v-563.2c0-19.2 12.8-32 32-32s32 12.8 32 32v563.2l83.2-83.2c12.8-12.8 32-12.8 44.8 0s12.8 32 0 44.8zM640 640v-64h192v-512h-576v512h192v64h-256v-640h704v640z" />
<glyph unicode="&#xe93e;" glyph-name="silverware" d="M512 928c-19.2 0-32-12.8-32-32v-256c0-19.2-12.8-32-32-32s-32 12.8-32 32v256c0 19.2-12.8 32-32 32s-32-12.8-32-32v-256c0-19.2-12.8-32-32-32s-32 12.8-32 32v256c0 19.2-12.8 32-32 32s-32-12.8-32-32v-256c0-76.8 51.2-140.8 115.2-153.6v-467.2c0-25.6 19.2-51.2 51.2-51.2s51.2 19.2 51.2 51.2v467.2c64 19.2 108.8 76.8 108.8 153.6v256c-6.4 19.2-19.2 32-38.4 32zM640 704c0-224 0-320 0-320h64v-371.2c0-25.6 19.2-51.2 51.2-51.2s51.2 19.2 51.2 51.2v915.2c-6.4 0-166.4 0-166.4-224z" />
<glyph unicode="&#xe93f;" glyph-name="star-half" d="M512 211.904l-276.928-211.904 94.72 353.28-265.792 200.64h326.848l121.152 341.888v-683.904z" />
<glyph unicode="&#xe940;" glyph-name="star-outline" d="M512.064 704.32l60.864-171.84 15.040-42.624h180.352l-148.288-111.488 11.392-41.856 46.336-170.752-165.568 126.72-38.848-29.76-127.744-97.6 46.016 171.584 11.2 41.6-34.496 25.984-113.344 85.632h181.12l75.968 214.4zM512.064 896l-121.216-342.080h-326.848l265.792-200.64-94.72-353.28 276.992 211.904 276.864-211.904-95.808 353.28 266.88 200.64h-326.72l-121.216 342.080z" />
<glyph unicode="&#xe941;" glyph-name="star" d="M512.064 896l121.152-342.080h326.784l-266.88-200.64 95.808-353.28-276.864 211.904-276.992-211.904 94.72 353.28-265.792 200.64h326.848z" />
<glyph unicode="&#xe942;" glyph-name="success" d="M512 896c-247.424 0-448-200.576-448-448s200.576-448 448-448 448 200.576 448 448-200.576 448-448 448zM492.224 165.632l-286.848 217.664 72.512 95.552 191.232-145.024 253.888 334.592 95.616-72.512-326.4-430.272z" />
<glyph unicode="&#xe943;" glyph-name="top" d="M876.8 627.2l-320 313.6c-25.6 25.6-64 25.6-89.6 0l-320-313.6c-19.2-25.6-19.2-70.4 0-96s64-25.6 89.6 0l211.2 211.2v-742.4c0-32 32-64 64-64s64 32 64 64v742.4l204.8-204.8c25.6-25.6 64-25.6 89.6 0s25.6 64 6.4 89.6z" />
<glyph unicode="&#xe944;" glyph-name="twitter" d="M326.4 70.4c384 0 595.2 320 595.2 595.2v25.6c38.4 32 70.4 64 102.4 108.8-38.4-12.8-76.8-25.6-121.6-32 44.8 25.6 76.8 64 89.6 115.2-38.4-25.6-83.2-38.4-134.4-51.2-76.8 83.2-211.2 89.6-294.4 6.4-51.2-51.2-76.8-128-57.6-198.4-166.4 6.4-320 89.6-428.8 217.6-51.2-96-25.6-217.6 64-281.6-32 0-64 6.4-96 25.6v0c0-96 70.4-185.6 166.4-204.8-32-6.4-64-6.4-96 0 25.6-83.2 102.4-140.8 192-147.2-70.4-57.6-166.4-89.6-262.4-89.6-12.8 0-32 0-51.2 0 108.8-57.6 217.6-89.6 332.8-89.6z" />
<glyph unicode="&#xe945;" glyph-name="warning-disc" d="M512 960c-282.56 0-512-229.44-512-512s229.44-512 512-512c282.56 0 512 229.44 512 512s-229.44 512-512 512zM512.064 312.192c33.792 0 61.696-26.816 61.696-60.544 0-33.92-27.904-60.672-61.696-60.672s-61.824 26.752-61.824 60.672c0 33.728 28.032 60.544 61.824 60.544zM450.24 705.088h123.52l-25.536-338.176h-71.168l-26.816 338.176z" />
<glyph unicode="&#xe946;" glyph-name="warning" d="M512 960c-282.048 0-512-228.8-512-512s228.8-512 512-512c283.264 0 512 228.8 512 512 0 282.112-229.888 512-512 512v0zM512 0.448c-246.592 0-447.616 201.024-447.616 447.552s201.088 447.552 447.616 447.552c246.592 0 447.616-201.024 447.616-447.552s-200.96-447.552-447.616-447.552v0zM450.24 705.088h123.52l-25.536-338.176h-71.168l-26.816 338.176zM512.064 312.192c33.792 0 61.696-26.816 61.696-60.544 0-33.92-27.904-60.672-61.696-60.672s-61.824 26.752-61.824 60.672c0 33.728 28.032 60.544 61.824 60.544z" />
</font>
</defs>
</svg>
